You must put lang files propertlyYou must put lang files propertlyYou must put lang files propertlyYou must put lang files propertlyYou must put lang files propertly Wisin & Yandel - La Revolucion (2009) FLAC
Calificación:
  • 0 votos - 0 Media
  • 1
  • 2
  • 3
  • 4
  • 5
Wisin & Yandel - La Revolucion (2009) FLAC
#1
Wisin & Yandel - La Revolucion (2009) FLAC

[Imagen: 3Tf8iZV.jpg?1]

Formato: FLAC- losses

REM GENRE Reggae
REM DATE 2009
REM DISCID CF0E3F0F
REM COMMENT "ExactAudioCopy v1.0b3"
PERFORMER "Wisin & Yandel"
TITLE "La Revolucion"
FILE "01. Wisin & Yandel - La revolucion.wav" WAVE
TRACK 01 AUDIO
TITLE "La revolucion"
PERFORMER "Wisin & Yandel"
INDEX 01 00:00:00
FILE "02. Wisin & Yandel - Quitame el dolor.wav" WAVE
TRACK 02 AUDIO
TITLE "Quitame el dolor"
PERFORMER "Wisin & Yandel"
INDEX 01 00:00:00
FILE "03. Wisin & Yandel - Encendio'.wav" WAVE
TRACK 03 AUDIO
TITLE "Encendio'"
PERFORMER "Wisin & Yandel"
INDEX 01 00:00:00
FILE "04. Wisin & Yandel - Mujeres in the club (ft. 50 Cent).wav" WAVE
TRACK 04 AUDIO
TITLE "Mujeres in the club (ft. 50 Cent)"
PERFORMER "Wisin & Yandel"
INDEX 01 00:00:00
FILE "05. Wisin & Yandel - Ahi voy.wav" WAVE
TRACK 05 AUDIO
TITLE "Ahi voy"
PERFORMER "Wisin & Yandel"
INDEX 01 00:00:00
FILE "06. Wisin & Yandel - Emociones.wav" WAVE
TRACK 06 AUDIO
TITLE "Emociones"
PERFORMER "Wisin & Yandel"
INDEX 01 00:00:00
FILE "07. Wisin & Yandel - Gracias a ti.wav" WAVE
TRACK 07 AUDIO
TITLE "Gracias a ti"
PERFORMER "Wisin & Yandel"
INDEX 01 00:00:00
FILE "08. Wisin & Yandel - Perfecto (ft. Yaviah, Ivy Queen).wav" WAVE
TRACK 08 AUDIO
TITLE "Perfecto (ft. Yaviah, Ivy Queen)"
PERFORMER "Wisin & Yandel"
INDEX 01 00:00:00
FILE "09. Wisin & Yandel - Abusadora.wav" WAVE
TRACK 09 AUDIO
TITLE "Abusadora"
PERFORMER "Wisin & Yandel"
INDEX 01 00:00:00
FILE "10. Wisin & Yandel - Ella me llama.wav" WAVE
TRACK 10 AUDIO
TITLE "Ella me llama"
PERFORMER "Wisin & Yandel"
INDEX 01 00:00:00
FILE "11. Wisin & Yandel - Yo lo se.wav" WAVE
TRACK 11 AUDIO
TITLE "Yo lo se"
PERFORMER "Wisin & Yandel"
INDEX 01 00:00:00
FILE "12. Wisin & Yandel - ¿Como quieres que te olvide (ft. Ednita Nazario).wav" WAVE
TRACK 12 AUDIO
TITLE "¿Como quieres que te olvide? (ft. Ednita Nazario)"
PERFORMER "Wisin & Yandel"
INDEX 01 00:00:00
FILE "13. Wisin & Yandel - Tu vives en mi.wav" WAVE
TRACK 13 AUDIO
TITLE "Tu vives en mi"
PERFORMER "Wisin & Yandel"
INDEX 01 00:00:00
TRACK 14 AUDIO
TITLE "Besos mojados"
PERFORMER "Wisin & Yandel"
INDEX 00 03:34:62
FILE "14. Wisin & Yandel - Besos mojados.wav" WAVE
INDEX 01 00:00:00
FILE "15. Wisin & Yandel - Descara Remix (ft. Yomo).wav" WAVE
TRACK 15 AUDIO
TITLE "Descara Remix (ft. Yomo)"
PERFORMER "Wisin & Yandel"
INDEX 01 00:00:00

Wisin & Yandel - La Revolucion (2009) FLAC

descarga

https://drive.google.com/folderview?id=0...sp=sharing

Posibles temas similares...
Wisin y Yandel - 2010 Lost Edition
DJ Playero – Old School Reggaeton (2009) 320kps
Wisin y Yandel - Pal Mundo
Wisin – El Regreso del Sobreviviente (Deluxe Edition) 320kps
Don Omar - The Last Don (2003) FLAC
Wisin y Yandel - Los Vaqueros El Regreso Deluxe Edition
Alpachino Presenta tha mixtape 2009
La Revolucion Vol. 1 320kps
Wisin y Yandel - Los Vaqueros
Wisin y Yandel - Los Vaqueros Collector Edition
Alexis Y Fido - La Esencia (2014) FLAC
Don Omar - iDon (2009) FLAC
Don Omar - Meet The Orphans (2010) FLAC
Don Omar - King of Kings (2006) FLAC
Wisin y Yandel - Lideres 2012 FLAC
My Last Threads

#2
Gracias amigo!


Posibles temas similares...
Tema: Autor Respuestas: Vistas: Último mensaje
  Wisin y Yandel - 2010 Lost Edition perubboy 1 2,820 10-07-2015, 11:27 AM
Último mensaje: Royz
  DJ Playero – Old School Reggaeton (2009) 320kps perubboy 2 1,420 09-06-2015, 07:39 PM
Último mensaje: doghouseall
  Wisin y Yandel - Pal Mundo perubboy 1 2,796 06-19-2015, 01:58 AM
Último mensaje: Lebron236
  Wisin – El Regreso del Sobreviviente (Deluxe Edition) 320kps perubboy 0 710 02-21-2015, 01:55 PM
Último mensaje: perubboy
  Don Omar - The Last Don (2003) FLAC perubboy 2 1,237 01-15-2015, 03:24 PM
Último mensaje: djkhrizperu
  Wisin y Yandel - Los Vaqueros El Regreso Deluxe Edition perubboy 2 4,254 12-15-2014, 11:43 PM
Último mensaje: Jeankarlo7
  Alpachino Presenta tha mixtape 2009 perubboy 0 435 09-14-2014, 10:44 AM
Último mensaje: perubboy
  La Revolucion Vol. 1 320kps perubboy 0 581 09-04-2014, 03:47 AM
Último mensaje: perubboy
  Wisin y Yandel - Los Vaqueros perubboy 2 3,912 08-22-2014, 03:59 AM
Último mensaje: perubboy
  Wisin y Yandel - Los Vaqueros Collector Edition perubboy 3 3,937 08-22-2014, 03:56 AM
Último mensaje: perubboy

Salto de foro:


Usuario(s) navegando en este tema: 1 invitado(s)